Login
Username:
Password:
Remember Me:
[Signup]
[Recover Account]
Friends
BTScene
Friendly site

Ale Torrenty Team
Friendly site

Anime RG
Friendly site

KaranPC
Friendly site

P2PDL.com
Friendly site

Free Tutorials & Courses
Friendly site
Torrent Details For "Little Nicky 2000 720p Esub HDTV Dual Audio English Hindi GOPI SAHI"

Little Nicky 2000 720p Esub HDTV Dual Audio English Hindi GOPI SAHI

To download this torrent, you need a BitTorrent client: Vuze or BTGuard
Download this torrent
Download using Magnet Link

Direct Download - no client needed

Download Faster - High Speed Download

Health:
Seeds: 8
Leechers: 73
Completed:
Last Checked: 18-06-2017 18:24:17

Uploader Reputation points : 1229
External: Torrent




Write a Review for the Uploader:   5   Say Thanks with one good review:


Details
Name:Little Nicky 2000 720p Esub HDTV Dual Audio English Hindi GOPI SAHI
Description:


Video
ID                             : 1
Format                         : AVC
Codec ID                       : V_MPEG4/ISO/AVC
Duration                       : 1 h 30 min
Bit rate                       : 1 300 kb/s
Width                          : 1 280 pixels
Height                         : 678 pixelsive
Bits/(Pixel*Frame)             : 0.062
Stream size                    : 838 MiB (95%)
Writing library                : x264 core 142 r2479 dd79a61

Audio #1
ID                             : 3
Format                         : AAC
Duration                       : 1 h 22 min
Bit rate                       : 35.0 kb/s
Channel(s)                     : 2 channels
Channel positions              : Front: L R
Sampling rate                  : 22.05 kHz / 11.025 kHz
Frame rate                     : 10.767 FPS (1024 spf)
Delay relative to video        : 67 ms
Language                       : Hindi

Audio #2
ID                             : 4
Format                         : AAC
Duration                       : 1 h 22 min
Bit rate                       : 35.0 kb/s
Channel(s)                     : 2 channels
Channel positions              : Front: L R
Sampling rate                  : 22.05 kHz / 11.025 kHz
Frame rate                     : 10.767 FPS (1024 spf)
Language                       : English
Text
Duration                       : 1 h 20 min
Bit rate                       : 65 b/s
Count of elements              : 1257
Stream size                    : 38.5 KiB (0%)
Language                       : English



YouTube Video:
Category:Movies
Language:Hindi  Hindi
Total Size:880.93 MB
Info Hash:F5B8BBB84167FA9B35347BD5BB6F0B5497817908
Added By:GOPISAHI Verified UploaderMovie Pirate
Date Added:18-06-2017 17:53:57
Torrent Status:Torrent Verified


Ratings:Not Yet Rated (Log in to rate it)


Tracker:
udp://tracker.coppersurfer.tk:6969/announce

This Torrent also has backup trackers
URLSeedersLeechersCompleted
udp://tracker.coppersurfer.tk:6969/announce2180
udp://tracker.opentrackr.org:1337/announce2100
udp://tracker.zer0day.to:1337/announce1110
udp://zer0day.to:1337/announce1110
udp://p4p.arenabg.com:1337/announce1120
udp://explodie.org:6969/announce000
udp://tracker.leechers-paradise.org:6969/announce000
udp://public.popcorn-tracker.org:6969/announce1110
udp://explodie.org:6969000


File List: 





Comments
No comments still posted